extratorrent - A Fan Made Alternative Login   |   Register
Important Information
Registrations are open now
-------------------------------------

Please click here to register with Extratorrent2 to recieve latest updates, add bookmarks and to post comments.

Friends
Friends

1) ProxyFix

Extratorrent2 > Categories > Movies > Bigfoot Country 2018 Movies HDRip x264 5.1 with Sample ☻rDX☻ torrent


Browse Movies torrents

Bigfoot Country 2018 Movies HDRip x264 5.1 with Sample ☻rDX☻ torrent


Download torrent: Download Bigfoot Country 2018 Movies HDRip x264 5.1 with Sample ☻rDX☻ torrent Magnet link Bookmark Torrent: Bigfoot Country 2018 Movies HDRip x264 5.1 with Sample ☻rDX☻   Bigfoot Country 2018 Movies HDRip x264 5.1 with Sample ☻rDX☻ torrent
Info hash: 4AFC2B1185037DF59AE6B5ED034A6EF63B44F76B
Category: Categories > Movies
Trackers:
View all torrent trackers >
Health:
 seeds: 1 ,  leechers: 4 |  Update >
Torrent language: English English
Total Size: 776.4 MB
Files List:
2    View torrent files >
Uploader:
nehalpuja
Torrent added: October 30, 2018, 4:30 pm
IMDB: http://www.imdb.com/title/tt7114588
Users rating: ---, not rated. please login to rate.

Download Bigfoot Country 2018 Movies HDRip x264 5.1 with Sample ☻rDX☻ torrent



Torrent Description

Bigfoot Country 2018 Movies HDRip x264 5.1 with Sample ☻rDX☻
===============================================================================================

SCREEN SHOTS:



or

http://iphonehosting.eu/2018/10/calling/1.html

File size : 767 MiB
Duration : 1 h 18 min
Overall bit rate mode : Constant
Overall bit rate : 1 366 kb/s
Movie name : Bigfoot Country 2018 Movies HDRip x264 5.1 with Sample ☻rDX☻

Video
ID : 2
Format : AVC
Format/Info : Advanced Video Codec
Format profile :
Format settings, CABAC : Yes
Format settings, ReFrames : 2 frames
Format settings, GOP : M=1, N=12
Codec ID : V_MPEG4/ISO/AVC
Duration : 1 h 18 min
Bit rate mode : Constant
Bit rate : 1 175 kb/s
Width : 720 pixels
Height : 384 pixels
Display aspect ratio : 1.85:1
Frame rate mode : Constant
Frame rate : 23.976 FPS
Color space : YUV
Chroma subsampling : 4:2:0
Bit depth : 8 bits
Scan type : Progressive
Bits/(Pixel*Frame) : 0.177
Stream size : 644 MiB (84%)
Title : ☻rDX☻
Default : Yes
Forced : No

Audio
ID : 1
Format : AC-3
Format/Info : Audio Coding 3
Mode extension : CM (complete main)
Format settings, Endianness : Big
Codec ID : A_AC3
Duration : 1 h 18 min
Bit rate mode : Constant
Bit rate : 192 kb/s
Channel(s) : 6 channels
Channel positions : Front: L C R, Side: L R, LFE
Sampling rate : 48.0 kHz
Frame rate : 31.250 FPS (1536 spf)
Bit depth : 16 bits
Compression mode : Lossy
Stream size : 108 MiB (14%)
Default : Yes
Forced : No

http://www.imdb.com/title/tt7114588


Download Bigfoot Country 2018 Movies HDRip x264 5.1 with Sample ☻rDX☻ torrent


Related Torrents


Comments   (please login to add your comment!)

a day 2018     xxx split     lindsey leigh     padmaavat     agv     robot 2     nasty checkup with dr darby     mrstrokesxxx rae     shogun     c0930 hitozuma1134     pennypaxlive     arko     gotham     episode     3d comics     mouse 100     ludacris ludaversal     10 by 10     ellen show     rosh     bush wackin stepsisters muff     105     rabg     karlie     


Home - Browse Torrents

Made with love by an Extratorrent Fan!