extratorrent - A Fan Made Alternative Login   |   Register
Important Information
Registrations are open now
-------------------------------------

Please click here to register with Extratorrent2 to recieve latest updates, add bookmarks and to post comments.

Friends
Friends

1) ProxyFix

Extratorrent2 > Categories > Movies > Autumn.Stables.2018.HDRip.XviD.AC3.With.Sample.LLG torrent


Browse Movies torrents

Autumn.Stables.2018.HDRip.XviD.AC3.With.Sample.LLG torrent


Download torrent: Download Autumn.Stables.2018.HDRip.XviD.AC3.With.Sample.LLG torrent Magnet link Bookmark Torrent: Autumn.Stables.2018.HDRip.XviD.AC3.With.Sample.LLG   Autumn.Stables.2018.HDRip.XviD.AC3.With.Sample.LLG torrent
Info hash: DEB42A627F7FC1BDB3808F14D0603037310E761D
Category: Categories > Movies
Trackers:
View all torrent trackers >
Health:
 seeds: 1 ,  leechers: 1 |  Update >
Torrent language: English English
Total Size: 1,013.4 MB
Files List:
2    View torrent files >
Uploader:
LifeLongg
Torrent added: November 15, 2018, 4:30 pm
Tags: Autumn, Stables, 2018, HDRip, , Drama, Romance, , , TV, Movie
Users rating: ---, not rated. please login to rate.

Download Autumn.Stables.2018.HDRip.XviD.AC3.With.Sample.LLG torrent



Torrent Description



******************************Thumbnail:**********************



******************************Screenshots:********************

Screenshot 1

Screenshot 2

Screenshot 3

Screenshot 4

Screenshot 5

Screenshot 6

Screenshot 7

Screenshot 8

Screenshot 9

Screenshot 0

************************************************************

Autumn.Stables.2018.HDRip.XviD.AC3.With.Sample.LLG.mp4
Format : MPEG-4
Format profile : Base Media
Codec ID : isom (isom/iso2/avc1/mp41)
File size : 1 000 MiB
Duration : 1 h 25 min
Overall bit rate : 1 627 kb/s
Writing application : Lavf57.56.101

Video
ID : 1
Format : AVC
Format/Info : Advanced Video Codec
Format profile :
Format settings : CABAC / 4 Ref Frames
Format settings, CABAC : Yes
Format settings, RefFrames : 4 frames
Codec ID : avc1
Codec ID/Info : Advanced Video Coding
Duration : 1 h 25 min
Bit rate : 1 500 kb/s
Width : 720 pixels
Height : 400 pixels
Display aspect ratio : 16:9
Frame rate mode : Constant
Frame rate : 23.976 (23976/1000) FPS
Color space : YUV
Chroma subsampling : 4:2:0
Bit depth : 8 bits
Scan type : Progressive
Bits/(Pixel*Frame) : 0.217
Stream size : 918 MiB (92%)


Audio
ID : 2
Format : AC-3
Format/Info : Audio Coding 3
Commercial name : Dolby Digital
Codec ID : ac-3
Duration : 1 h 25 min
Bit rate mode : Constant
Bit rate : 128 kb/s
Channel(s) : 6 channels
Channel layout : L R C LFE Ls Rs
Sampling rate : 48.0 kHz
Frame rate : 31.250 FPS (1536 SPF)
Bit depth : 16 bits
Compression mode : Lossy
Stream size : 78.7 MiB (8%)
Service kind : Complete Main
Default : Yes
Alternate group : 1


********************************************************


Download Autumn.Stables.2018.HDRip.XviD.AC3.With.Sample.LLG torrent


Related Torrents


Comments   (please login to add your comment!)

the replacement killers xvid     cracked     n 17     zbrush     lane     ravenswood s01e03     jada stevens and her perfect ass     kandy kummings     a knights tale     2017 hdrip xvid     black ass anal booty     gujrati     analteen     psycho pass     castle 1080p     daniella dee     hindi silverrg     1080p 2017     black xxx hard     shizumi     2 s4     comptia security sy0 401     kids     loan     


Home - Browse Torrents

Made with love by an Extratorrent Fan!